Welcome To Good Time.Com                                    Online Films Cartoon Movies Songs And More Have A Good Time.                                             If u want to ask any question or if u want to request any movie or any thing then contact me online at    haiderabass97@yahoo.com  or u can Email me at    haiderabass97@yahoo.com

Barbie 2011 A Fairy Secret

Image


Image

Complete name : Barbie.2011.A.Fairy.Secret.DVDrip.XViD-nCODE
Format : AVI
Format/Info : Audio Video Interleave
File size : 700 MiB
Duration : 1h 11mn
Overall bit rate : 1 360 Kbps
Writing application : VirtualDubMod 1.5.10.2 (build 2542/release)
Writing library : VirtualDubMod build 2542/release

Video
ID : 0
Format : MPEG-4 Visual
Format profile : Advanced Simple@L5
Format settings, BVOP : 2
Format settings, QPel : No
Format settings, GMC : No warppoints
Format settings, Matrix : Default (H.263)
Codec ID : XVID
Codec ID/Hint : XviD
Duration : 1h 11mn
Bit rate : 1 159 Kbps
Width : 720 pixels
Height : 384 pixels
Display aspect ratio : 1.875
Frame rate : 25.000 fps
Color space : YUV
Chroma subsampling : 4:2:0
Bit depth : 8 bits
Scan type : Progressive
Compression mode : Lossy
Bits/(Pixel*Frame) : 0.168
Stream size : 596 MiB (85%)
Writing library : XviD 1.2.1 (UTC 2008-12-04)

Audio
ID : 1
Format : AC-3
Format/Info : Audio Coding 3
Mode extension : CM (complete main)
Codec ID : 2000
Duration : 1h 11mn
Bit rate mode : Constant
Bit rate : 192 Kbps
Channel(s) : 2 channels
Channel positions : Front: L R
Sampling rate : 48.0 KHz
Bit depth : 16 bits
Compression mode : Lossy
Stream size : 98.7 MiB (14%)
Alignment : Split accross interleaves
Interleave, duration : 40 ms (1.00 video frame)
Interleave, preload duration : 500 ms

source DVDR - ripped using Avisynth & MeGUi, muxed with Virtualdubmod.

standalone Compatible

Hope you and the little people njoy!


Image
Image

Image

Image

Image

Image

Image

Image

Image

Image

Image

Image



!!DOWNLOAD HERE!!
Add To Google BookmarksStumble ThisFav This With TechnoratiAdd To Del.icio.usDigg ThisAdd To RedditTwit ThisAdd To FacebookAdd To Yahoo

No comments:

Post a Comment

Make Money Online

Traffic Web, CLICKANDBUY ONLINE CASINO, Tote Casino, winpalace casino, betsson